Listeners (1080p) (BDRip) (Dual Audio)

Category:
Date:
2021-02-23 08:51 UTC
Submitter:
Seeders:
10
Information:
No information.
Leechers:
0
File size:
10.9 GiB
Completed:
92
Info hash:
8f79c5fc55d73737c1eec53d1965447f69508f36
The only differences between this and the other one is the name has been fixed Video and JP Audio: [Snow-Raws](https://nyaa.si/view/1343251) English Audio: [Golumpa](https://nyaa.si/user/Golumpa?f=0&c=0_0&q=Listeners) Subtitles: [Erai-Raws](https://nyaa.si/view/1256788) General Unique ID : 324365936136572812168984723935937765544 (0xF4069B600E928DC740958802CC8520A8) Complete name : X:\Upload\Listeners\Listeners S01E01 Live Forever Live Forever.mkv Format : Matroska Format version : Version 4 / Version 2 File size : 849 MiB Duration : 24 min 27 s Overall bit rate mode : Variable Overall bit rate : 4 855 kb/s Encoded date : UTC 2021-02-23 07:27:52 Writing application : mkvmerge v51.0.0 ('I Wish') 64-bit Writing library : libebml v1.4.0 + libmatroska v1.6.2 Video ID : 1 Format : HEVC Format/Info : High Efficiency Video Coding Format profile : Main 10@L4@Main Codec ID : V_MPEGH/ISO/HEVC Duration : 24 min 27 s Bit rate : 3 923 kb/s Width : 1 920 pixels Height : 1 080 pixels Display aspect ratio : 16:9 Frame rate mode : Constant Frame rate : 23.976 (24000/1001) FPS Color space : YUV Chroma subsampling : 4:2:0 Bit depth : 10 bits Bits/(Pixel*Frame) : 0.079 Stream size : 686 MiB (81%) Writing library : x265 3.4:[Linux][GCC 10.1.0][64 bit] 10bit Encoding settings : cpuid=1111039 / frame-threads=3 / wpp / no-pmode / no-pme / no-psnr / no-ssim / log-level=2 / input-csp=1 / input-res=1920x1080 / interlace=0 / total-frames=0 / level-idc=0 / high-tier=1 / uhd-bd=0 / ref=4 / no-allow-non-conformance / no-repeat-headers / annexb / no-aud / no-hrd / info / hash=0 / no-temporal-layers / no-open-gop / min-keyint=1 / keyint=324 / gop-lookahead=0 / bframes=8 / b-adapt=2 / b-pyramid / bframe-bias=0 / rc-lookahead=80 / lookahead-slices=0 / scenecut=40 / hist-scenecut=0 / radl=0 / no-splice / no-intra-refresh / ctu=32 / min-cu-size=8 / no-rect / no-amp / max-tu-size=32 / tu-inter-depth=2 / tu-intra-depth=2 / limit-tu=2 / rdoq-level=2 / dynamic-rd=0.00 / no-ssim-rd / signhide / no-tskip / nr-intra=0 / nr-inter=0 / no-constrained-intra / no-strong-intra-smoothing / max-merge=3 / limit-refs=2 / no-limit-modes / me=3 / subme=4 / merange=57 / temporal-mvp / no-frame-dup / no-hme / weightp / no-weightb / no-analyze-src-pics / deblock=-1:-1 / no-sao / no-sao-non-deblock / rd=6 / selective-sao=0 / early-skip / rskip / no-fast-intra / no-tskip-fast / no-cu-lossless / b-intra / no-splitrd-skip / rdpenalty=0 / psy-rd=2.00 / psy-rdoq=0.90 / no-rd-refine / no-lossless / cbqpoffs=-1 / crqpoffs=-1 / rc=crf / crf=15.7 / qcomp=0.70 / qpstep=4 / stats-write=0 / stats-read=0 / ipratio=1.40 / pbratio=1.30 / aq-mode=3 / aq-strength=0.90 / cutree / zone-count=0 / no-strict-cbr / qg-size=32 / no-rc-grain / qpmax=69 / qpmin=0 / no-const-vbv / sar=0 / overscan=0 / videoformat=5 / range=0 / colorprim=2 / transfer=2 / colormatrix=1 / chromaloc=0 / display-window=0 / cll=0,0 / min-luma=0 / max-luma=1023 / log2-max-poc-lsb=8 / vui-timing-info / vui-hrd-info / slices=1 / opt-qp-pps / opt-ref-list-length-pps / no-multi-pass-opt-rps / scenecut-bias=0.05 / hist-threshold=0.01 / no-opt-cu-delta-qp / no-aq-motion / no-hdr10 / no-hdr10-opt / no-dhdr10-opt / no-idr-recovery-sei / analysis-reuse-level=0 / analysis-save-reuse-level=0 / analysis-load-reuse-level=0 / scale-factor=0 / refine-intra=0 / refine-inter=0 / refine-mv=1 / refine-ctu-distortion=0 / no-limit-sao / ctu-info=0 / no-lowpass-dct / refine-analysis-type=0 / copy-pic=1 / max-ausize-factor=1.0 / no-dynamic-refine / no-single-sei / no-hevc-aq / no-svt / no-field / qp-adaptation-range=1.00 / no-scenecut-aware-qpconformance-window-offsets / right=0 / bottom=0 / decoder-max-rate=0 Language : Japanese Default : Yes Forced : No Color range : Limited Matrix coefficients : BT.709 Audio #1 ID : 2 Format : FLAC Format/Info : Free Lossless Audio Codec Codec ID : A_FLAC Duration : 24 min 27 s Bit rate mode : Variable Bit rate : 676 kb/s Channel(s) : 2 channels Channel layout : L R Sampling rate : 48.0 kHz Frame rate : 11.719 FPS (4096 SPF) Bit depth : 16 bits Compression mode : Lossless Stream size : 118 MiB (14%) Writing library : libFLAC 1.3.3 (UTC 2019-08-04) Language : Japanese Default : Yes Forced : No Audio #2 ID : 3 Format : AAC LC Format/Info : Advanced Audio Codec Low Complexity Codec ID : A_AAC-2 Duration : 24 min 27 s Bit rate : 253 kb/s Channel(s) : 2 channels Channel layout : L R Sampling rate : 48.0 kHz Frame rate : 46.875 FPS (1024 SPF) Compression mode : Lossy Delay relative to video : 18 ms Stream size : 44.3 MiB (5%) Language : English Default : No Forced : No Text ID : 4 Format : ASS Codec ID : S_TEXT/ASS Codec ID/Info : Advanced Sub Station Alpha Duration : 24 min 6 s Bit rate : 121 b/s Count of elements : 408 Compression mode : Lossless Stream size : 21.5 KiB (0%) Language : English Default : Yes Forced : No Menu 00:00:00.000 : ja: 00:09:11.968 : ja: 00:21:43.427 : ja: 00:23:15.685 : ja: 00:23:56.977 : ja:

File list

  • Listeners
    • Listeners S01E01 Live Forever Live Forever.mkv (849.2 MiB)
    • Listeners S01E02 Half Man Halber Mensch.mkv (972.2 MiB)
    • Listeners S01E03 You Made Me Realise You Made Me Realise.mkv (933.4 MiB)
    • Listeners S01E04 Teen Spirit Teen Spirit.mkv (853.2 MiB)
    • Listeners S01E05 In the Embrace of the Beat When Doves Cry.mkv (898.7 MiB)
    • Listeners S01E06 Goodbye Blue Sky Goodbye Blue Sky.mkv (1011.5 MiB)
    • Listeners S01E07 Day of Rage problems.mkv (910.2 MiB)
    • Listeners S01E08 Real Me The Real Me.mkv (785.4 MiB)
    • Listeners S01E09 Freedom Freedom.mkv (884.0 MiB)
    • Listeners S01E10 Cross Road Blues Cross Road Blues.mkv (895.0 MiB)
    • Listeners S01E11 I AM THE RESURRECTION I AM THE RESURRECTION.mkv (958.3 MiB)
    • Listeners S01E12 Hello, Goodbye Hello, Goodbye.mkv (1.1 GiB)
Thank! https://nyaa.si/view/1216219 Please work on this